#TITLE:Giygas Battle;
#SUBTITLE:EarthBound;
#ARTIST:SquareSoft;
#TITLETRANSLIT:;
#SUBTITLETRANSLIT:;
#ARTISTTRANSLIT:;
#CREDIT:;
#BANNER:Giygas Battle.jpg;
#BACKGROUND:Giygas Battle-bg.jpg;
#LYRICSPATH:;
#CDTITLE:!macTitle.png;
#MUSIC:Giygas Battle.mp3;
#OFFSET:-0.135;
#SAMPLESTART:9.960;
#SAMPLELENGTH:12.000;
#SELECTABLE:YES;
#BPMS:0.000=122.070,108.000=263.641,172.000=131.680,204.000=64.990,208.938=184.070,226.000=371.279,290.000=130.200;
#STOPS:;
#BGCHANGES:;
// cache tags:
#FIRSTBEAT:0.000;
#LASTBEAT:301.500;
#SONGFILENAME:Songs/Music V.I.P ^_^/Giygas Battle (MacGravel)/Giygas Battle.sm;
#HASMUSIC:1;
#HASBANNER:1;
#MUSICLENGTH:110.288;
// end cache tags

//---------------dance-single - ----------------
#NOTES:
     dance-single:
     :
     Hard:
     11:
     1.000,1.000,1.000,0.118,0.979,761.000,149.000,13.000,0.000,0.000:

0100
1000
0100
0000
0010
0001
0010
0000
0100
0010
0100
0000
1000
0010
1000
0000
,
0100
0010
0001
0000
0100
0010
0100
0000
0001
0010
0100
0000
1000
0010
1000
0000
,
0100
0010
0001
0000
0100
0010
1000
0000
0100
0010
0001
0000
0100
0010
0100
0000
,
0001
0010
0100
0000
0010
0100
1000
0000
0010
1000
0100
0000
1000
0010
1000
0000
,
0110
1001
0000
1001
0110
0000
0101
1010
0000
1010
0101
0000
1001
0000
1010
0000
,
0001
0010
0100
1000
0010
1000
0100
0010
0001
0100
0010
0100
0001
1000
0010
1000
,
0100
1000
0001
1000
0010
0100
0001
0010
0100
0010
0001
1000
0100
1000
0010
1000
,
0001
0100
0010
0010
1000
1000
0001
0001
0010
0010
0100
0100
1000
1000
0010
0010
,
1000
0001
0100
0100
0010
0010
0100
0100
0001
0001
0010
0010
0100
0100
1000
1000
,
0010
1000
0001
0001
0100
0100
0010
0010
1000
1000
0100
0100
0010
0010
0100
0100
,
1000
0001
1001
0000
0110
0000
0101
0000
0110
0000
0011
0000
0110
0000
1001
0000
,
0010
0001
0010
0010
0100
0100
1000
1000
0010
0010
1000
1000
0100
0100
0010
0010
,
0001
1000
0100
0100
0010
0010
0001
0001
0010
0010
0100
0100
1000
1000
0100
0100
,
1000
0001
0010
0010
0001
0001
0010
0010
0100
0100
1000
1000
0010
0010
1000
1000
,
0100
0010
1001
0000
1010
0000
1100
0000
0011
0000
0110
0000
0101
0000
0110
0000
,
0001
0010
0100
1000
0001
0010
0100
1000
0001
0010
0100
1000
0001
0010
0100
1000
,
0100
0010
0001
1000
0100
0010
0001
1000
0100
0010
0001
1000
0100
0010
0001
1000
,
0010
1000
0001
0100
0010
1000
0001
0100
0010
1000
0001
0100
0010
1000
0001
0100
,
1000
0100
0001
0100
1000
0100
0001
0100
1000
0100
0001
0100
1000
0100
0001
0100
,
0001
0100
0010
0100
0001
0010
0100
1000
0010
1000
0100
0000
0010
0001
0100
0010
,
0100
0001
0010
0100
0010
0100
1000
0010
1000
0100
1000
0010
1000
0100
0010
0001
,
0100
0010
0000
0001
1000
0000
0010
0100
0001
0100
0000
0010
1000
0000
0100
0010
,
0001
0100
0000
0010
0100
0000
0001
0010
0100
1000
0010
1000
0100
0010
0001
0100
,
0010
0000
1010
1010
0101
0000
0110
0110
1001
0000
0011
0011
1100
0000
1100
1100
,
0011
0000
0101
0101
1010
0000
1010
1010
0101
0000
0110
0110
1001
0000
1001
1001
,
0110
0000
0011
0011
1100
0000
1010
1010
0101
0000
0110
0110
1001
0000
1100
1100
,
0011
0000
0101
0101
1010
0000
0110
0110
1001
0000
0101
0101
1010
0000
1100
1100
,
0011
1000
0100
1000
1010
0001
0100
0010
,
0101
0001
0010
0100
0011
0100
1000
0010
,
1100
0010
0100
0001
0110
0001
0010
0100
,
0011
0100
1000
0010
1100
0010
1000
0010
,
0110
0001
0010
0100
0110
0001
0010
0100
,
1010
0100
1000
0010
1001
0001
0100
0001
,
1010
0101
0000
0000
0011
0110
0000
0000
,
0000
0000
0001
1000
0001
1000
0001
1000
,
1100
0010
1000
0001
0110
0001
0010
0100
,
1010
0100
1000
0010
0101
0010
0100
0001
,
0110
0001
0010
0100
1001
0100
1000
0010
,
1100
0010
1000
0001
0110
0001
0010
0100
,
0011
0100
1000
0010
1100
0010
1000
0010
,
0110
0001
1000
0100
1010
0100
1000
0100
,
0011
0110
0000
0000
1100
1010
0000
0000
,
0000
0000
0001
0010
0100
1000
0100
0010
,
0001
0000
0001
0000
0101
0000
1000
0000
1000
0001
1000
0000
1010
0000
1000
0000
,
0100
0000
0100
0000
1100
0000
0100
0010
0011
0000
0010
0000
0110
0000
0010
0000
,
0001
0000
0001
0000
0011
1000
0100
0000
0100
0000
0100
0000
1100
0000
0100
0000
,
0010
0000
0010
0000
0110
0000
0010
0000
1000
0001
1000
0010
1000
0100
1000
0010
,
0200
0300
0100
0000
0100
0000
0001
0000
0002
1003
0001
0000
1001
0000
0002
0003
,
0010
0000
0010
0000
0011
0000
0010
0100
1100
0000
0100
0000
0110
0000
0100
0000
,
1000
0000
1000
0000
1001
0010
0100
0000
0100
0000
0100
0000
0110
0000
0100
0000
,
1010
0000
0010
0000
0110
0000
0010
0000
0001
0010
0001
0100
0001
1000
0001
0010
,
0101
0101
0000
0000
1010
1010
0000
0101
0000
0000
0110
0000
0000
0000
0000
0000
1001
1001
0000
0000
1100
1100
0000
0110
,
0000
0000
0022
0000
0000
0000
0033
0000
0000
0000
0000
0000
0101
0000
0000
0110
0000
0000
2000
0000
0000
0000
0000
0000
,
3200
0000
0000
0300
0010
0010
0002
0000
,
2003
0000
0000
3000
0101
0110
0020
0000
,
2030
0000
0000
0000
0000
0000
3000
0000
1000
0001
1000
0010
1000
0001
1000
0010
,
0000
0000
0001
1000
0001
1000
0001
0000
0000
0000
1000
0001
1000
0001
1000
0000
0001
0000
0000
0000
0010
0000
0000
0000
0100
0000
0000
0000
1000
0000
0000
0000
,
0010
1000
0100
0010
0001
0100
0010
0100
,
0001
1000
0010
1000
0001
0100
0010
0100
,
0001
0010
0100
1000
0010
1000
0001
0100
,
0010
1000
0001
0100
0010
1000
0100
0010
,
0100
1000
0001
0010
0100
0010
0001
1000
,
0001
0100
0001
1000
0010
0100
0001
1000
,
0100
0010
0001
0100
0010
1000
0001
0100
,
0010
0100
0001
1000
0001
0100
0010
1000
,
0100
0010
0100
0010
0001
0100
0010
0100
,
0010
1000
0001
0100
0001
0100
0010
1000
,
0001
0100
0010
0100
0001
1000
0010
1000
,
0100
0010
0001
0100
0001
0100
0010
1000
,
0001
0100
0010
1000
0100
0010
0001
0010
,
0100
1000
0001
0100
0001
0010
0100
0010
,
0001
0100
0010
1000
0001
1000
0100
0010
,
0100
0000
0000
0010
0000
0000
0001
0000
0000
1000
0000
0000
1001
0000
1001
0000
0000
0000
0000
0000
1010
0000
1010
0000
,
0000
1001
0000
0000
0110
0000
0000
1000
1000
1000
0101
0101
,
0000
0000
0000
0000
1010
0000
1010
0000
0100
0000
0101
0000
0001
0000
0001
0000
1001
0000
0000
0000
0010
1000
0110
0000
,
0010
0000
0010
0000
2002
0000
0000
0000
0000
3003
0000
0000
0000
0000
0000
0000
0000
0000
0000
0000
0000
0000
0000
0000
;
